Klixen - Magic Point


Video:

ID : 2
Format : VC-1
Format profile : MP@HL
Codec ID : WMV3
Codec ID/Info : Windows Media Video 9
Codec ID/Hint : WMV3
Description of the codec : Windows Media Video 9
Duration : 16mn 48s
Bit rate mode : Variable
Bit rate : 1 441 Kbps
Width : 1 280 pixels
Height : 720 pixels
Display aspect ratio : 16:9
Frame rate : 25.000 fps
Resolution : 24 bits
Scan type : Progressive
Bits/(Pixel*Frame) : 0.063
Stream size : 173 MiB (85%)
Language : German (AT)

Audio:

ID : 1
Format : WMA2
Format profile : L2
Codec ID : 161
Codec ID/Info : Windows Media Audio 2
Description of the codec : Windows Media Audio 9.2 - 160 kbps, 48 kHz, stereo (A/V) 1-pass CBR
Duration : 16mn 48s
Bit rate mode : Constant
Bit rate : 160 Kbps
Channel(s) : 2 channels
Sampling rate : 48.0 KHz
Resolution : 16 bits
Stream size : 19.2 MiB (9%)
Language : German (AT)

Download:
http://www.fileserve.com/file/rQC6PsS
No pass!