Star Wars XXX Porn Parody



General
Format : AVI
Format/Info : Audio Video Interleave
File size : 857 MiB
Duration : 2h 28mn
Overall bit rate : 806 Kbps

Video
Format : xvid
Codec ID : xvid
Duration : 2h 28mn
Bit rate : 701 Kbps
Width : 640 pixels
Height : 360 pixels
Display aspect ratio : 16:9
Frame rate : 23.976 fps
Bits/(Pixel*Frame) : 0.127
Stream size : 745 MiB (87%)

Audio
Format : MPEG Audio
Format version : Version 1
Format profile : Layer 3
Mode : Joint stereo
Mode extension : MS Stereo
Codec ID : 55
Codec ID/Hint : MP3
Duration : 2h 28mn
Bit rate mode : Constant
Bit rate : 96.0 Kbps
Channel(s) : 2 channels
Sampling rate : 48.0 KHz
Compression mode : Lossy
Stream size : 98.2 MiB (11%)
Alignment : Aligned on interleaves
Interleave, duration : 24 ms (0.58 video frame)
Interleave, preload duration : 523 ms

Download:
http://bitshare.com/files/u6go87ex/Star_Wars_XXX_Porn_Parody.001.html
http://bitshare.com/files/ywnfg0ny/Star_Wars_XXX_Porn_Parody.002.html
http://bitshare.com/files/k0rmpfi3/Star_Wars_XXX_Porn_Parody.003.html
http://bitshare.com/files/8upngszw/Star_Wars_XXX_Porn_Parody.004.html
http://bitshare.com/files/uakilven/Star_Wars_XXX_Porn_Parody.004.html
http://bitshare.com/files/axqrgy72/Star_Wars_XXX_Porn_Parody.005.html
http://bitshare.com/files/k5pyi36m/Star_Wars_XXX_Porn_Parody.006.html
http://bitshare.com/files/glnopurv/Star_Wars_XXX_Porn_Parody.007.html
http://bitshare.com/files/c0jy8x2p/Star_Wars_XXX_Porn_Parody.008.html
http://bitshare.com/files/pzwdefcr/Star_Wars_XXX_Porn_Parody.009.html
http://bitshare.com/files/e9kuj2s1/Star_Wars_XXX_Porn_Parody.010.html
http://bitshare.com/files/02v1bcm3/Star_Wars_XXX_Porn_Parody.crc.html